#TITLE:HOT LIMIT RETURNS!;
#SUBTITLE:;
#ARTIST:John Desire;
#TITLETRANSLIT:;
#SUBTITLETRANSLIT:;
#ARTISTTRANSLIT:;
#CREDIT:;
#BANNER:Hot Limit Returns-banner.png;
#BACKGROUND:Hot Limit Returns-bg.png;
#LYRICSPATH:;
#CDTITLE:;
#MUSIC:Hot Limit returns.mp3;
#MUSICLENGTH:91.715;
#OFFSET:-0.040;
#SAMPLESTART:41.485;
#SAMPLELENGTH:12.000;
#SELECTABLE:YES;
#BPMS:0.000=156.000;
#STOPS:;
#BGCHANGES:;
#FIRSTBEAT:8.000;

#LASTBEAT:236.000;

#SONGFILENAME:Songs/ERICth MIX 2nd Style/Hot limit/hotlimit.sm;

#HASMUSIC:1;

#HASBANNER:1;


//---------------dance-single - MANIAC----------------
#NOTES:
     dance-single:
     MANIAC:
     hard:
     9:
     0.682,0.643,0.360,0.196,0.403,387.000,33.000,18.000,0.000,0.000:


0000
0000
0000
0000
,
0000
0000
0000
0000
,
1000
0000
0010
1000
0010
1000
0000
0000
0001
0000
0010
0001
0010
0001
0000
0000
,
1000
0000
0010
1000
0010
1000
0000
0000
0010
0000
0001
0000
0010
0001
0000
0000
,
1000
0000
0100
1000
0100
1000
0000
0000
0001
0000
0100
0001
0100
0001
0000
0000
,
1000
1000
0001
0001
0010
0100
0010
0000
,
1000
0000
0010
1000
0010
1000
0000
0000
0001
0000
0010
0001
0010
0001
0000
0000
,
1000
0000
0010
1000
0010
1000
0000
0000
0010
0000
0001
0000
0010
0001
0000
0000
,
1000
0000
0100
1000
0100
1000
0000
0000
0001
0000
0100
0001
0100
0001
0000
0000
,
1000
1000
0001
0001
0010
0100
0010
0000
,
1000
0100
1000
0010
1000
0100
1000
0000
,
0001
0010
0001
1000
0001
0100
0001
0000
,
1000
0001
0100
0001
1000
0010
1000
0000
,
1100
0000
0000
1100
0000
0000
1100
0000
1100
0000
0000
0000
1001
0000
0000
0000
,
0010
0100
0010
0100
0001
1000
0100
0000
,
0001
0000
0000
1000
0000
0000
0001
0000
2000
0000
0000
0000
3000
0000
0000
0000
,
0100
0001
0100
0001
1000
0100
1000
0001
,
0110
0000
0000
0110
0000
0000
0110
0000
0110
0000
0000
0000
0000
0000
0000
0000
,
0000
0000
1000
0100
0000
0000
0010
0001
0000
0000
0001
0100
0000
0000
0010
1000
,
0000
0000
1000
0001
0000
0000
0001
1000
0000
0000
1000
0010
0000
0000
0010
1000
,
0000
0000
1000
0100
0000
0000
0100
1000
0000
0000
1000
0001
0000
0000
0001
1000
,
0001
0000
1001
0000
0001
1000
0000
0000
,
0000
0000
1000
0100
0000
0000
0010
0001
0000
0000
0001
0100
0000
0000
0010
1000
,
0000
0000
1000
0001
0000
0000
0001
1000
0000
0000
1000
0010
0000
0000
0010
1000
,
0000
0000
1000
0100
0000
0000
0100
1000
0000
0000
1000
0001
0000
0000
0001
1000
,
0001
0000
0000
0100
0000
0000
0010
0000
0100
0000
0000
0000
0000
0000
0000
0000
,
1001
0000
0000
0110
0000
0000
1001
0000
0220
0000
0000
0000
0330
0000
0000
0000
,
0100
0000
0010
0000
0100
0010
0100
0000
,
0002
1003
0100
1000
0200
1000
1300
0000
,
1100
0011
0101
1010
,
1000
0100
1000
0200
0010
0310
0110
0000
,
0001
0010
1000
0000
1000
0010
0001
0000
,
0001
1000
0100
2000
0001
3001
0010
0000
,
1000
0100
0010
0001
1000
0100
0010
0001
,
1100
0011
2200
3300
,
0100
0000
0010
0000
0100
0010
0100
0000
,
0002
1003
0100
1000
0200
1000
1300
0000
,
1100
0011
0101
1010
,
1000
0100
1000
0200
0010
0310
0110
0000
,
0001
0010
1000
0000
1000
0010
0001
0000
,
0001
1000
0100
2000
0001
3001
0010
0000
,
1000
0100
0010
0001
1000
0100
0010
0001
,
1100
0011
2200
3300
,
1000
0000
0010
1000
0010
1000
0000
0000
0001
0000
0010
0001
0010
0001
0000
0000
,
1000
0000
0010
1000
0010
1000
0000
0000
0010
0000
0001
0000
0010
0001
0000
0000
,
1000
0000
0100
1000
0100
1000
0000
0000
0001
0000
0100
0001
0100
0001
0000
0000
,
1000
1000
0001
0001
0010
0100
0010
0000
,
1000
0000
0010
1000
0010
1000
0000
0000
0001
0000
0010
0001
0010
0001
0000
0000
,
1000
0000
0010
1000
0010
1000
0000
0000
0010
0000
0001
0000
0010
0001
0000
0000
,
1000
0000
0100
1000
0100
1000
0000
0000
0001
0000
0100
0001
0100
0001
0000
0000
,
1000
1000
0001
0001
0010
0100
0010
0000
,
1000
0001
1000
0001
,
1000
0100
0010
0100
0000
0100
0000
0000
,
1001
0000
1001
0000
1000
0001
0010
0000
,
0010
0000
0001
0000
0010
0000
0001
2000
0000
0000
0000
0000
3000
0000
0000
0000
,
0010
0000
0010
0000
0010
0010
0010
0000
,
1000
0000
0100
0010
0000
0010
0100
0000
,
0001
0010
0100
1000
0001
0010
0100
1000
,
0001
1000
2002
0000
,
3003
0000
0000
0000;

//---------------dance-single - ANOTHER----------------
#NOTES:
     dance-single:
     ANOTHER:
     medium:
     6:
     0.444,0.515,0.109,0.022,0.000,273.000,10.000,2.000,0.000,0.000:

0000
0000
0000
0000
,
0000
0000
0000
0000
,
1000
0100
0010
0000
0001
0100
0010
0000
,
1000
0100
0010
0000
0001
0100
0010
0000
,
1000
0100
0010
0000
0001
0100
0010
0000
,
1000
0001
1000
0001
1000
0000
1001
0000
,
1000
0100
0010
0000
0001
0100
0010
0000
,
1000
0100
0010
0000
0001
0100
0010
0000
,
1000
0100
0010
0000
0001
0100
0010
0000
,
1000
0010
0001
0010
1000
0010
0001
0000
,
1000
0100
1000
0010
,
1000
0001
0100
0010
,
0001
0010
0100
1000
,
0100
0000
0000
0100
0100
0000
0010
0000
,
1000
0001
0010
0100
,
1000
0100
0010
0110
,
0001
1000
0100
0010
,
0001
0000
0000
0001
1000
0000
0000
0000
,
0001
1000
0100
0010
,
0001
0100
0100
0100
,
0010
1000
0001
1000
,
0100
0110
0100
0010
,
0001
0000
1000
0010
0100
0000
0001
0000
,
1000
0000
0001
0100
0010
0000
0001
0000
,
1001
0100
0010
0001
,
1000
0010
1000
0001
,
1000
0100
1000
0000
,
0010
1000
0100
0010
,
0001
1000
0001
0010
0100
0010
0001
0000
,
1000
0001
0100
0010
,
1000
0100
0010
0100
1000
0100
1000
0000
,
0001
1000
0100
0000
,
0001
1000
0010
0100
,
0110
0001
0010
0001
,
1000
0010
1000
0001
0010
0000
0011
0000
,
1000
0100
0010
0001
,
1000
0001
0100
0010
0001
0010
1000
0000
,
1000
0100
0001
0100
1000
0010
0001
0010
,
1000
0001
1000
0001
0100
0000
0101
0000
,
0001
0000
1000
0000
0010
0100
0010
0000
,
0001
1000
0100
0010
0001
0010
0100
0000
,
1000
0010
1000
0000
0001
1000
0001
0000
,
1000
0001
1000
1001
,
0001
1000
0100
1000
,
0010
1000
0001
0100
,
0010
1000
0001
0100
,
0001
0010
0011
1100
,
0010
0100
0001
1000
,
0100
0010
0100
1000
,
0010
0100
0001
1000
,
0001
1000
0001
1000
0001
1000
0001
0000
,
0001
1000
0100
0010
,
0001
1000
0000
1000
0000
1000
0001
0000
,
1000
0100
0010
0001
,
1000
0100
0000
0000
0010
0000
0100
0000
,
0100
1000
0010
1000
,
0001
0100
0000
0001
0000
0001
1000
0000
,
0010
0000
1000
0000
0001
1000
0001
1000
,
0100
0020
0200
0000
,
0330
0000
0000
0000;

//---------------dance-single - BASIC----------------
#NOTES:
     dance-single:
     BASIC:
     easy:
     2:
     0.288,0.322,0.164,0.022,0.000,168.000,15.000,2.000,0.000,0.000:

0000
0000
0000
0000
,
0000
0000
0000
0000
,
0001
1000
0010
0100
,
0001
1000
0100
0010
,
1001
0100
0010
0001
,
1000
0000
1000
0001
,
0100
0010
0001
1000
,
0100
0010
0100
1000
,
0001
0001
1000
1000
,
0010
0100
0010
0110
,
0000
1001
0000
0001
,
0000
1000
0000
1001
,
0000
0100
0000
0010
,
0000
0100
0100
0100
,
0010
0000
0010
0001
,
1000
0000
0001
0000
,
0010
0000
0100
0001
,
1000
0000
0010
0000
,
0100
0000
0001
0000
,
1000
0100
0010
0000
,
0001
0000
0100
0000
,
0010
1000
0010
1000
,
0010
0000
0001
0000
,
0010
0001
1000
0000
,
0100
0000
0010
0000
,
0001
0000
1000
0000
,
0100
0000
0110
0000
,
1001
0010
0000
0100
,
0000
0010
0000
0100
,
0010
0100
1000
0001
,
0100
0000
0010
0010
,
0010
1000
0001
0000
,
1001
0100
0010
0000
,
0001
0100
0000
0000
,
1010
0001
0101
0000
,
0001
1000
0001
1000
,
0010
0100
0001
0001
,
0000
1000
0000
0001
,
1000
0100
0010
0110
,
0001
1000
0100
0000
,
0001
0100
0010
1000
,
0001
0000
0100
0000
,
0011
0100
1100
0000
,
0001
1000
0010
0100
,
0001
1000
0100
0010
,
0100
1000
0001
0100
,
0001
0010
0001
0100
,
1000
0100
0001
0010
,
0001
1000
0010
0100
,
0001
0000
1000
0000
,
0001
1000
0001
1001
,
0100
0000
0010
0000
,
1000
0000
0100
0000
,
0001
0000
1000
0000
,
0010
0000
0010
0000
,
0110
0000
0001
0000
,
1000
0000
0100
0000
,
0010
0000
0001
0000
,
1000
0100
0022
0000
,
0033
0000
0000
0000;
